<?xml version="1.0" standalone="no"?> <!DOCTYPE svg PUBLIC "-//W3C//DTD SVG 1.0//EN" "http://www.w3.org/TR/2001/REC-SVG-20010904/DTD/svg10.dtd" > <svg xmlns="http://www.w3.org/2000/svg" width="100%" height="100%">
<defs >
<font id="conduititcextralight" horiz-adv-x="364" ><font-face
    font-family="Conduit ITC ExtraLight"
    units-per-em="1000"
    panose-1="2 0 5 6 5 0 0 2 0 3"
    ascent="628"
    descent="-225"
    alphabetic="0" />
<missing-glyph horiz-adv-x="171" />
<glyph unicode=" " glyph-name="space" horiz-adv-x="171" />
<glyph unicode="!" glyph-name="exclam" horiz-adv-x="293" d="M172 369L156 193Q155 183 147 183Q138 183 137 193L120 367V618Q120 628 130 628H162Q172 628 172 618V369ZM192 44T192 25T179 -7T147 -20T115 -7T102 25T115 57T147 70T179 57Z" />
<glyph unicode="&quot;" glyph-name="quotedbl" horiz-adv-x="282" d="M223 626L205 482Q204 473 195 473H191Q182 473 181 482L160 626Q158 637 170 637H213Q225 637 223 626ZM109 626L91 482Q90 473 81 473H75Q66 473 65 482L44 626Q42 637 54 637H99Q111 637 109 626Z" />
<glyph unicode="#" glyph-name="numbersign" horiz-adv-x="568" d="M517 426L511 406Q508 396 498 396H437Q428 396 427 390L387 245Q383 232 397 232H462Q472 232 469 222L463 202Q460 192 450 192H379Q371 192 368 183L318 7Q317 0 308 0H284Q271 0 274 13L321
180Q324 192 311 192H183Q174 192 173 186L121 7Q120 0 111 0H87Q74 0 77 13L124 180Q127 192 114 192H61Q51 192 54 202L60 222Q63 232 73 232H131Q139 232 141 240L182 384Q185 396 172 396H111Q101 396 104 406L109 426Q112 436 122 436H189Q197 436 199 444L250
621Q251 628 260 628H284Q297 628 294 615L247 449Q243 436 257 436H386Q394 436 396 444L447 621Q448 628 457 628H481Q494 628 491 615L444 449Q440 436 454 436H510Q520 436 517 426ZM380 384Q383 396 370 396H240Q231 396 230 390L190 245Q186 232 200 232H328Q336
232 338 240L380 384Z" />
<glyph unicode="$" glyph-name="dollar" horiz-adv-x="515" d="M442 150Q442 85 401 42T292 -9Q282 -11 282 -20V-53Q282 -63 272 -63H244Q234 -63 234 -53V-20Q234 -10 225 -10Q160 -10 115 23Q93 40 80 59Q73 68 84 74L110 88Q118 91 122 85Q165 30 225 30Q234
30 234 39V290Q234 302 223 308Q153 342 118 378T82 481Q82 545 121 587T224 638Q234 640 234 650V684Q234 694 244 694H272Q282 694 282 684V650Q282 640 293 639Q334 635 370 613Q396 596 414 570Q420 561 409 556L384 543Q376 539 372 544Q342 585 293 596Q282
598 282 588V353Q282 341 292 337Q367 302 404 263T442 150ZM234 375V588Q234 599 224 596Q184 588 160 558T136 481Q136 441 159 416T224 369Q234 364 234 375ZM388 150Q388 196 363 224T292 276Q282 282 282 270V40Q282 31 293 32Q336 40 362 72T388 150Z" />
<glyph unicode="%" glyph-name="percent" horiz-adv-x="495" d="M219 445Q219 407 195 384T129 360T64 383T39 445V545Q39 583 63 606T129 630T194 607T219 545V445ZM392 614L132 6Q129 0 123 0H99Q84 0 90 14L350 622Q353 628 359 628H383Q398 628 392 614ZM444
85Q444 47 420 24T354 0T289 23T264 85V185Q264 223 288 246T354 270T419 247T444 185V85ZM172 445V545Q172 589 129 589Q109 589 97 577T85 545V445Q85 425 96 413T129 401Q172 401 172 445ZM397 85V185Q397 229 354 229Q334 229 322 217T310 185V85Q310 65 321
53T354 41Q397 41 397 85Z" />
<glyph unicode="&amp;" glyph-name="ampersand" horiz-adv-x="630" d="M607 1Q607 -12 596 -9Q517 8 442 83Q435 90 431 81Q379 -10 275 -10H243Q167 -10 121 36T74 158V184Q74 256 174 309Q183 314 174 319Q72 380 72 469Q72 548 117 594T243 640Q320 640 366
594T413 471V449Q413 372 289 315Q279 311 289 305Q341 272 414 189Q423 179 428 193Q454 262 489 300T590 339H597Q607 339 607 329V299Q607 289 597 289H590Q564 289 544 280T510 249T488 211T467 162Q464 153 462 149Q458 139 465 132Q527 67 600 44Q607 41
607 34V1ZM362 461V481Q362 531 327 565T243 599Q192 599 158 565T123 480Q123 432 148 403T227 343Q236 339 249 344Q304 368 333 394T362 461ZM396 115Q401 127 393 137Q322 219 287 247Q262 267 237 281Q227 287 218 283Q179 267 152 240T125 181V150Q125 97
158 64T243 30H275Q354 30 396 115Z" />
<glyph unicode="&apos;" glyph-name="quotesingle" horiz-adv-x="161" d="M109 626L91 482Q90 473 81 473H75Q66 473 65 482L44 626Q42 637 54 637H99Q111 637 109 626Z" />
<glyph unicode="(" glyph-name="parenleft" horiz-adv-x="330" d="M255 -181Q255 -194 244 -191Q211 -184 184 -166Q108 -117 108 -21V568Q108 662 184 710Q209 726 244 734Q255 737 255 724V701Q255 693 247 691Q206 681 183 651T159 578V-33Q159 -75 182 -106T247
-148Q255 -150 255 -158V-181Z" />
<glyph unicode=")" glyph-name="parenright" horiz-adv-x="330" d="M222 -21Q222 -110 158 -158Q130 -180 88 -191Q75 -194 75 -181V-158Q75 -150 83 -148Q124 -137 147 -106T171 -33V578Q171 619 148 649T83 691Q75 693 75 701V724Q75 737 88 734Q122 725 150
708Q222 661 222 568V-21Z" />
<glyph unicode="*" glyph-name="asterisk" horiz-adv-x="389" d="M351 462L337 439Q331 430 322 436L220 507Q213 512 208 509T204 498L219 374Q221 363 209 363H180Q168 363 170 374L185 498Q186 506 181 509T169 507L70 436Q60 430 55 439L41 463Q35 472 46
477L158 525Q166 528 166 533T158 543L46 595Q35 600 41 609L55 632Q61 642 70 635L167 562Q174 557 179 560T183 571L170 692Q168 703 180 703H207Q219 703 217 692L203 571Q202 563 207 560T219 562L322 635Q332 641 337 632L351 609Q357 600 346 595L229 543Q222
540 222 534T229 525L346 476Q357 471 351 462Z" />
<glyph unicode="+" glyph-name="plus" horiz-adv-x="515" d="M469 225Q469 215 459 215H287Q277 215 277 205V33Q277 23 267 23H251Q241 23 241 33V205Q241 215 231 215H57Q47 215 47 225V243Q47 253 57 253H231Q241 253 241 263V435Q241 445 251 445H267Q277
445 277 435V263Q277 253 287 253H459Q469 253 469 243V225Z" />
<glyph unicode="," glyph-name="comma" horiz-adv-x="214" d="M149 17Q149 -52 118 -95Q101 -121 74 -138Q68 -142 61 -135L54 -129Q46 -123 54 -115Q95 -77 95 -1Q95 9 85 9H70Q60 9 60 19V68Q60 78 70 78H139Q149 78 149 68V17Z" />
<glyph unicode="-" glyph-name="hyphen" horiz-adv-x="266" d="M207 202Q207 192 197 192H69Q59 192 59 202V234Q59 244 69 244H197Q207 244 207 234V202Z" />
<glyph unicode="." glyph-name="period" horiz-adv-x="189" d="M140 44T140 25T127 -7T95 -20T63 -7T50 25T63 57T95 70T127 57Z" />
<glyph unicode="/" glyph-name="slash" horiz-adv-x="310" d="M305 616L44 6Q41 0 35 0H1Q-14 0 -8 14L253 624Q256 630 262 630H296Q311 630 305 616Z" />
<glyph unicode="0" glyph-name="zero" horiz-adv-x="515" d="M444 150Q444 80 397 35T273 -10H241Q164 -10 118 34T72 150V481Q72 552 118 596T241 640H273Q351 640 397 597T444 481V150ZM393 150V481Q393 531 358 565T273 599H241Q190 599 157 566T123 481V150Q123
101 157 66T241 30H273Q324 30 358 64T393 150Z" />
<glyph unicode="1" glyph-name="one" horiz-adv-x="515" d="M424 10Q424 0 414 0H127Q117 0 117 10V30Q117 40 127 40H235Q245 40 245 50V519Q245 527 240 529T228 526L149 448Q141 440 135 448L123 464Q117 472 123 478L270 625Q273 628 277 628H286Q296 628
296 618V50Q296 40 306 40H414Q424 40 424 30V10Z" />
<glyph unicode="2" glyph-name="two" horiz-adv-x="515" d="M441 481Q441 463 439 447T429 415T416 390T397 366T377 347T353 328T329 312T302 296T277 281Q211 242 177 202T143 102V50Q143 40 153 40H421Q431 40 431 30V10Q431 0 421 0H102Q92 0 92 10V102Q92
157 116 200T168 266T241 316Q321 362 355 395T390 481Q390 530 358 564T270 599H228Q168 599 128 546Q123 540 117 543L91 556Q79 562 85 570Q105 594 117 603Q162 640 228 640H270Q350 640 395 598T441 481Z" />
<glyph unicode="3" glyph-name="three" horiz-adv-x="515" d="M421 158Q421 81 375 36T250 -10H218Q157 -10 115 19Q92 35 74 61Q68 70 79 76L106 88Q112 90 116 85Q162 30 218 30H250Q300 30 335 64T370 150V186Q370 235 335 269T250 304H188Q178 304 178 314V334Q178
344 188 344H250Q301 344 335 379T370 466V481Q370 531 335 565T250 599H218Q160 599 116 544Q110 536 104 541L78 556Q67 561 74 570Q91 592 108 605Q151 640 218 640H250Q329 640 375 595T421 471V454Q421 414 395 379T331 329Q322 326 327 322Q329 321 331 320Q365
310 393 274T421 189V158Z" />
<glyph unicode="4" glyph-name="four" horiz-adv-x="515" d="M484 166Q484 156 474 156H397Q387 156 387 146V10Q387 0 377 0H346Q336 0 336 10V146Q336 156 326 156H58Q48 156 48 166V213L320 624Q324 628 328 628H377Q387 628 387 618V205Q387 195 397 195H474Q484
195 484 185V166ZM336 205V536Q336 545 330 547T319 542L99 211Q95 204 97 200T107 195H326Q336 195 336 205Z" />
<glyph unicode="5" glyph-name="five" horiz-adv-x="515" d="M442 158Q442 83 395 37T271 -10H239Q173 -10 128 25Q109 40 94 59Q87 68 98 74L125 88Q132 91 137 85Q179 30 239 30H271Q321 30 356 63T391 150V186Q391 236 357 270T271 304H123Q113 304 113 314V618Q113
628 123 628H420Q430 628 430 618V592Q430 582 420 582H174Q164 582 164 572V354Q164 344 174 344H271Q349 344 395 300T442 178V158Z" />
<glyph unicode="6" glyph-name="six" horiz-adv-x="515" d="M452 150Q452 81 405 36T281 -10H251Q174 -10 129 34T83 150V481Q83 552 129 596T251 640H281Q352 640 396 604Q414 589 427 570Q432 562 421 556L395 543Q389 540 384 546Q341 599 281 599H251Q198
599 166 567T134 481V311Q134 303 139 302T150 306Q196 351 263 351H293Q360 351 406 307T452 193V150ZM401 150V193Q401 239 369 275T281 311H251Q201 311 168 277T134 193V150Q134 100 167 65T251 30H281Q330 30 365 65T401 150Z" />
<glyph unicode="7" glyph-name="seven" horiz-adv-x="515" d="M434 528Q434 486 421 451T380 388T332 344T277 306Q222 271 194 235T166 150V10Q166 0 156 0H125Q115 0 115 10V150Q115 216 150 259T245 342Q292 372 317 393T362 449T383 528V572Q383 582 373 582H103Q93
582 93 592V618Q93 628 103 628H424Q434 628 434 618V528Z" />
<glyph unicode="8" glyph-name="eight" horiz-adv-x="515" d="M444 158Q444 83 397 37T273 -10H241Q164 -10 119 35T73 158V184Q73 230 101 265T166 313Q176 316 166 321Q131 331 102 367T72 449V471Q72 548 119 594T241 640H273Q352 640 398 594T444 471V449Q444
408 419 374T358 325Q348 320 358 316Q392 304 418 268T444 184V158ZM393 461V481Q393 531 358 565T273 599H241Q190 599 157 566T123 481V461Q123 410 156 375T241 339H273Q324 339 358 374T393 461ZM393 150V181Q393 230 358 264T273 299H241Q190 299 157 265T123
181V150Q123 101 157 66T241 30H273Q323 30 358 64T393 150Z" />
<glyph unicode="9" glyph-name="nine" horiz-adv-x="515" d="M433 149Q433 78 387 34T265 -10H235Q162 -10 119 27Q105 38 89 60Q84 68 95 74L121 87Q127 90 132 84Q175 31 235 31H265Q318 31 350 63T382 149V281Q382 289 377 290T366 286Q320 241 253 241H223Q156
241 110 285T64 399V480Q64 549 111 594T235 640H265Q342 640 387 596T433 480V149ZM382 399V480Q382 530 349 565T265 600H235Q186 600 151 565T115 480V399Q115 353 147 317T235 281H265Q315 281 348 315T382 399Z" />
<glyph unicode=":" glyph-name="colon" horiz-adv-x="189" d="M140 334T140 315T127 283T95 270T63 283T50 315T63 347T95 360T127 347ZM140 44T140 25T127 -7T95 -20T63 -7T50 25T63 57T95 70T127 57Z" />
<glyph unicode=";" glyph-name="semicolon" horiz-adv-x="202" d="M144 334T144 315T131 283T99 270T67 283T54 315T67 347T99 360T131 347ZM145 17Q145 -53 111 -100Q91 -125 70 -138Q64 -142 57 -135L50 -129Q42 -123 50 -115Q91 -77 91 -1Q91 9 81 9H66Q56
9 56 19V68Q56 78 66 78H135Q145 78 145 68V17Z" />
<glyph unicode="&lt;" glyph-name="less" horiz-adv-x="515" d="M413 435Q419 426 409 421L107 248Q91 239 107 230L408 54Q417 49 410 39L402 27Q396 19 389 25L76 204Q71 207 71 213V260Q71 266 76 269L391 450Q400 454 405 446L413 435Z" />
<glyph unicode="=" glyph-name="equal" horiz-adv-x="515" d="M469 322Q469 312 459 312H57Q47 312 47 322V338Q47 348 57 348H459Q469 348 469 338V322ZM469 130Q469 120 459 120H57Q47 120 47 130V146Q47 156 57 156H459Q469 156 469 146V130Z" />
<glyph unicode="&gt;" glyph-name="greater" horiz-adv-x="515" d="M447 215Q447 209 442 206L128 25Q120 21 114 29L107 40Q101 49 111 54L411 230Q427 239 411 248L111 421Q101 426 107 435L114 446Q120 454 128 450L442 267Q447 264 447 258V215Z" />
<glyph unicode="?" glyph-name="question" horiz-adv-x="515" d="M440 481Q440 447 431 421T402 376T367 347T325 324Q274 299 255 277T235 215V203Q235 192 225 192H193Q184 192 184 202V227Q184 274 212 305T296 361Q343 382 367 408T391 481Q391 531 356 565T271
599H229Q170 599 127 544Q121 536 115 541L89 556Q78 561 85 570Q107 598 132 615Q171 640 229 640H271Q348 640 394 597T440 481ZM271 44T271 25T258 -7T226 -20T194 -7T181 25T194 57T226 70T258 57Z" />
<glyph unicode="@" glyph-name="at" horiz-adv-x="703" d="M626 245Q626 207 602 184T536 160H523Q475 160 449 192Q442 201 434 193Q419 180 395 170T355 160Q299 160 266 192T232 276V359Q232 411 266 442T355 474Q387 474 419 452Q426 447 430 449T435 460V464Q435
474 445 474H469Q479 474 479 464V250Q479 230 491 218T524 205H536Q554 205 567 218T581 250V460Q581 516 544 550T446 585H266Q205 585 168 551T131 460V170Q131 114 168 80T266 45H526Q536 45 536 35V10Q536 0 526 0H266Q184 0 135 47T86 170V460Q86 536 135
583T266 630H446Q528 630 577 583T626 460V245ZM435 284V351Q435 384 412 406T355 429Q324 429 301 406T277 351V284Q277 251 299 228T355 205Q387 205 411 228T435 284Z" />
<glyph unicode="A" glyph-name="A" horiz-adv-x="450" d="M433 13Q436 0 423 0H390Q381 0 380 7L340 147Q337 156 329 156H121Q112 156 111 150L70 7Q69 0 60 0H28Q15 0 18 13L202 621Q203 628 212 628H238Q247 628 248 621L433 13ZM321 208L237 517L226 572H223Q220
543 213 518L126 208Q122 195 136 195H311Q325 195 321 208Z" />
<glyph unicode="B" glyph-name="B" horiz-adv-x="516" d="M454 169Q454 92 407 46T283 0H93Q83 0 83 10V618Q83 628 93 628H283Q359 628 406 587T454 473V455Q454 413 429 377T361 324Q356 322 356 319T361 314Q399 301 426 266T454 184V169ZM403 461V471Q403
525 370 557T283 589H144Q134 589 134 579V349Q134 339 144 339H283Q334 339 368 374T403 461ZM403 160V181Q403 230 369 264T283 299H144Q134 299 134 289V50Q134 40 144 40H283Q334 40 368 74T403 160Z" />
<glyph unicode="C" glyph-name="C" horiz-adv-x="462" d="M419 61Q406 40 386 25Q343 -10 273 -10H241Q164 -10 119 34T73 150V481Q73 553 118 596T241 640H273Q338 640 381 608Q404 593 419 570Q425 561 414 556L388 543Q380 539 377 544Q332 599 273 599H241Q190
599 157 566T124 481V150Q124 100 157 65T241 30H273Q337 30 376 86Q380 91 387 88L413 76Q425 70 419 61Z" />
<glyph unicode="D" glyph-name="D" horiz-adv-x="526" d="M454 171Q454 93 407 47T283 0H93Q83 0 83 10V618Q83 628 93 628H283Q361 628 407 583T454 461V171ZM403 160V471Q403 520 369 554T283 589H144Q134 589 134 579V50Q134 40 144 40H283Q334 40 368 74T403 160Z" />
<glyph unicode="E" glyph-name="E" horiz-adv-x="462" d="M422 10Q422 0 412 0H93Q83 0 83 10V618Q83 628 93 628H412Q422 628 422 618V599Q422 589 412 589H144Q134 589 134 579V349Q134 339 144 339H364Q374 339 374 329V309Q374 299 364 299H144Q134 299 134
289V50Q134 40 144 40H412Q422 40 422 30V10Z" />
<glyph unicode="F" glyph-name="F" horiz-adv-x="432" d="M422 599Q422 589 412 589H144Q134 589 134 579V349Q134 339 144 339H364Q374 339 374 329V309Q374 299 364 299H144Q134 299 134 289V10Q134 0 124 0H93Q83 0 83 10V618Q83 628 93 628H412Q422 628 422 618V599Z" />
<glyph unicode="G" glyph-name="G" horiz-adv-x="505" d="M443 150Q443 81 396 36T273 -10H241Q164 -10 119 34T73 150V481Q73 552 119 596T241 640H293Q354 640 397 610Q420 593 437 570Q444 562 432 556L406 543Q399 539 395 544Q354 599 293 599H241Q188 599
156 568T124 481V150Q124 99 157 65T241 30H273Q325 30 358 65T392 150V241Q392 251 382 251H274Q264 251 264 261V282Q264 292 274 292H433Q443 292 443 282V150Z" />
<glyph unicode="H" glyph-name="H" horiz-adv-x="551" d="M469 10Q469 0 459 0H428Q418 0 418 10V289Q418 299 408 299H144Q134 299 134 289V10Q134 0 124 0H93Q83 0 83 10V618Q83 628 93 628H124Q134 628 134 618V349Q134 339 144 339H408Q418 339 418 349V618Q418
628 428 628H459Q469 628 469 618V10Z" />
<glyph unicode="I" glyph-name="I" horiz-adv-x="216" d="M134 10Q134 0 124 0H93Q83 0 83 10V618Q83 628 93 628H124Q134 628 134 618V10Z" />
<glyph unicode="J" glyph-name="J" horiz-adv-x="402" d="M325 160Q325 84 279 37T155 -10Q93 -10 48 24Q30 37 11 61Q4 71 14 77L40 90Q48 93 52 87Q98 30 155 30Q211 30 242 62T274 150V618Q274 628 284 628H315Q325 628 325 618V160Z" />
<glyph unicode="K" glyph-name="K" horiz-adv-x="498" d="M488 15Q492 8 490 4T479 0H443Q437 0 434 5L243 318Q234 333 223 319L134 207V10Q134 0 124 0H93Q83 0 83 10V618Q83 628 93 628H124Q134 628 134 618V291Q134 282 140 280T152 285L410 624Q414 628 418
628H449Q457 628 459 623T457 612L273 385Q265 376 272 365L488 15Z" />
<glyph unicode="L" glyph-name="L" horiz-adv-x="430" d="M422 10Q422 0 412 0H93Q83 0 83 10V618Q83 628 93 628H124Q134 628 134 618V50Q134 40 144 40H412Q422 40 422 30V10Z" />
<glyph unicode="M" glyph-name="M" horiz-adv-x="649" d="M567 10Q567 0 557 0H526Q516 0 516 10V296Q516 403 527 535L523 536Q512 498 495 460L338 106Q335 100 329 100H320Q314 100 311 106L156 460Q143 490 127 537L123 536Q134 404 134 299V10Q134 0 124
0H93Q83 0 83 10V618Q83 628 93 628H127Q133 628 136 622L310 225Q322 195 326 182H329Q340 212 345 223L516 622Q519 628 525 628H557Q567 628 567 618V10Z" />
<glyph unicode="N" glyph-name="N" horiz-adv-x="551" d="M469 10Q469 0 459 0H427Q421 0 418 5L152 486Q146 498 141 511T133 531L131 538H128Q134 493 134 414V10Q134 0 124 0H93Q83 0 83 10V618Q83 628 93 628H123Q129 628 132 623L400 137L422 83H425Q418
142 418 221V618Q418 628 428 628H459Q469 628 469 618V10Z" />
<glyph unicode="O" glyph-name="O" horiz-adv-x="515" d="M443 150Q443 78 397 34T273 -10H241Q164 -10 119 34T73 150V481Q73 553 118 596T241 640H273Q350 640 396 596T443 481V150ZM392 150V481Q392 531 357 565T273 599H241Q190 599 157 566T124 481V150Q124
100 157 65T241 30H273Q322 30 357 65T392 150Z" />
<glyph unicode="P" glyph-name="P" horiz-adv-x="466" d="M454 461Q454 392 407 346T283 299H144Q134 299 134 289V10Q134 0 124 0H93Q83 0 83 10V618Q83 628 93 628H283Q361 628 407 583T454 461ZM403 461V471Q403 520 369 554T283 589H144Q134 589 134 579V349Q134
339 144 339H283Q334 339 368 374T403 461Z" />
<glyph unicode="Q" glyph-name="Q" horiz-adv-x="515" d="M443 150Q443 87 402 44T285 -10Q277 -11 277 -20V-87Q277 -97 267 -97H247Q237 -97 237 -87V-20Q237 -12 227 -10Q151 1 112 43T73 150V481Q73 553 118 596T241 640H273Q350 640 396 596T443 481V150ZM392
150V481Q392 531 357 565T273 599H241Q190 599 157 566T124 481V150Q124 58 223 31Q237 27 237 40V94Q237 104 247 104H267Q277 104 277 94V38Q277 28 289 31Q341 43 366 75T392 150Z" />
<glyph unicode="R" glyph-name="R" horiz-adv-x="507" d="M455 451Q455 408 427 370T354 316Q346 313 349 306L450 13Q455 0 441 0H405Q398 0 396 7L297 293Q296 299 289 299H144Q134 299 134 289V10Q134 0 124 0H93Q83 0 83 10V618Q83 628 93 628H283Q363 628
409 585T455 468V451ZM403 461V471Q403 523 370 556T283 589H144Q134 589 134 579V349Q134 339 144 339H283Q334 339 368 374T403 461Z" />
<glyph unicode="S" glyph-name="S" horiz-adv-x="450" d="M404 150Q404 78 357 34T231 -10H188Q130 -10 86 18Q61 35 43 59Q36 68 47 74L73 88Q80 91 85 85Q128 30 188 30H231Q284 30 317 64T351 150Q351 179 341 202T308 242T267 270T219 294Q211 297 208 299Q166
318 145 330T97 364T59 414T47 481Q47 552 93 596T215 640H231Q291 640 332 613Q358 597 377 570Q383 561 372 556L347 543Q339 539 335 544Q294 599 231 599H215Q163 599 131 567T99 481Q99 455 109 435T138 399T175 375T218 353Q224 350 227 349Q317 307 346
282Q404 234 404 150Z" />
<glyph unicode="T" glyph-name="T" horiz-adv-x="372" d="M357 599Q357 589 347 589H222Q212 589 212 579V10Q212 0 202 0H171Q161 0 161 10V579Q161 589 151 589H26Q16 589 16 599V618Q16 628 26 628H347Q357 628 357 618V599Z" />
<glyph unicode="U" glyph-name="U" horiz-adv-x="525" d="M448 150Q448 81 400 36T278 -10H246Q170 -10 124 35T78 150V618Q78 628 88 628H119Q129 628 129 618V150Q129 97 160 64T246 30H278Q331 30 364 64T397 150V618Q397 628 407 628H438Q448 628 448 618V150Z" />
<glyph unicode="V" glyph-name="V" horiz-adv-x="450" d="M433 615L247 7Q246 0 237 0H214Q205 0 204 7L18 615Q15 628 28 628H63Q72 628 73 621L216 118L227 69H230Q233 89 241 119L379 621Q380 628 389 628H423Q436 628 433 615Z" />
<glyph unicode="W" glyph-name="W" horiz-adv-x="681" d="M659 616L525 8Q523 0 515 0H492Q483 0 482 7L352 454L342 508H339Q336 484 327 454L197 7Q196 0 187 0H165Q157 0 155 8L23 616Q20 628 33 628H67Q75 628 77 620L171 153L180 98H183L197 152L324 623Q325
630 334 630H347Q356 630 357 623L486 150L500 95H503Q505 116 512 151L605 620Q607 628 615 628H649Q662 628 659 616Z" />
<glyph unicode="X" glyph-name="X" horiz-adv-x="454" d="M419 14Q426 0 410 0H372Q366 0 363 6L237 269Q233 276 228 276T219 269L88 6Q84 0 79 0H47Q30 0 38 15L189 311Q190 316 189 320L36 613Q28 628 45 628H83Q88 628 92 622L222 361Q226 354 231 354T240
361L363 622Q366 628 372 628H407Q423 628 416 614L270 322Q267 316 270 311L419 14Z" />
<glyph unicode="Y" glyph-name="Y" horiz-adv-x="414" d="M404 613L232 293V10Q232 0 222 0H191Q181 0 181 10V293L11 613Q3 628 20 628H58Q63 628 67 622L200 352Q204 344 209 344T218 352L347 622Q351 628 356 628H395Q412 628 404 613Z" />
<glyph unicode="Z" glyph-name="Z" horiz-adv-x="412" d="M382 10Q382 0 372 0H46Q30 0 37 14L287 575Q294 589 278 589H51Q41 589 41 599V618Q41 628 51 628H352Q368 628 361 614L110 54Q103 40 119 40H372Q382 40 382 30V10Z" />
<glyph unicode="[" glyph-name="bracketleft" horiz-adv-x="330" d="M255 -182Q255 -192 245 -192H118Q108 -192 108 -182V725Q108 735 118 735H245Q255 735 255 725V706Q255 696 245 696H169Q159 696 159 686V-142Q159 -152 169 -152H245Q255 -152 255 -162V-182Z" />
<glyph unicode="\" glyph-name="backslash" horiz-adv-x="310" d="M305 14Q311 0 296 0H262Q256 0 253 6L-7 614Q-13 628 2 628H36Q42 628 45 622L305 14Z" />
<glyph unicode="]" glyph-name="bracketright" horiz-adv-x="330" d="M222 -182Q222 -192 212 -192H85Q75 -192 75 -182V-162Q75 -152 85 -152H161Q171 -152 171 -142V686Q171 696 161 696H85Q75 696 75 706V725Q75 735 85 735H212Q222 735 222 725V-182Z" />
<glyph unicode="_" glyph-name="underscore" horiz-adv-x="205" d="M211 -215Q211 -225 201 -225H-9Q-19 -225 -19 -215V-190Q-19 -180 -9 -180H201Q211 -180 211 -190V-215Z" />
<glyph unicode="`" glyph-name="grave" horiz-adv-x="505" d="M271 498Q278 488 266 488H262Q255 488 244 496L124 594Q117 599 120 605T131 611H184Q190 611 193 607L271 498Z" />
<glyph unicode="a" glyph-name="a" horiz-adv-x="438" d="M371 10Q371 0 361 0H342Q332 0 332 10V56Q332 65 325 67T313 62Q266 0 206 0H165Q114 0 80 31T45 111V124Q45 174 79 205T165 237H310Q320 237 320 247V286Q320 336 287 369T201 402Q139 402 99 348Q94
341 87 344L59 358Q49 363 55 372Q75 399 97 414Q141 443 201 443Q278 443 324 400T371 286V10ZM320 138V187Q320 197 310 197H165Q136 197 116 177T95 127V111Q95 81 114 61T165 40H206Q242 40 273 68T320 138Z" />
<glyph unicode="b" glyph-name="b" horiz-adv-x="470" d="M413 160Q413 90 366 45T242 0Q174 0 132 53Q129 57 124 58T116 58T112 49V10Q112 0 102 0H83Q73 0 73 10V618Q73 628 83 628H114Q124 628 124 618V397Q124 388 130 387T142 392Q186 436 252 436Q320 436
366 392T413 278V160ZM362 160V278Q362 327 327 361T242 396T158 362T124 278V160Q124 111 158 76T242 40Q294 40 328 74T362 160Z" />
<glyph unicode="c" glyph-name="c" horiz-adv-x="420" d="M373 61Q351 29 324 13Q287 -10 227 -10Q150 -10 104 34T58 150V288Q58 348 105 397T227 446Q287 446 325 424Q352 408 373 377Q379 368 368 363L343 351Q336 347 331 352Q285 406 227 406Q177 406 143
372T109 288V150Q109 98 141 64T227 30Q287 30 331 86Q335 91 341 88L367 76Q379 70 373 61Z" />
<glyph unicode="d" glyph-name="d" horiz-adv-x="470" d="M398 10Q398 0 388 0H369Q359 0 359 10V49Q359 55 356 57T347 59T339 53Q297 0 229 0Q152 0 105 45T58 160V278Q58 347 104 391T219 436Q285 436 329 392Q334 386 340 387T347 397V618Q347 628 357 628H388Q398
628 398 618V10ZM347 160V278Q347 328 313 362T229 396T144 362T109 278V160Q109 108 142 74T229 40Q278 40 312 75T347 160Z" />
<glyph unicode="e" glyph-name="e" horiz-adv-x="455" d="M398 224Q398 214 388 214H119Q109 214 109 204V150Q109 98 141 64T227 30H242Q304 30 346 86Q350 91 356 88L382 76Q394 70 388 61Q369 35 343 17Q302 -10 242 -10H227Q150 -10 104 34T58 150V288Q58
348 105 397T227 446Q306 446 352 399T398 283V224ZM347 264V280Q347 334 314 370T227 406Q177 406 143 372T109 288V269Q109 254 119 254H337Q347 254 347 264Z" />
<glyph unicode="f" glyph-name="f" horiz-adv-x="271" d="M289 628L281 605Q279 599 273 599H259Q208 599 175 566T141 481V398Q141 388 151 388H228Q238 388 238 378V358Q238 348 228 348H151Q141 348 141 338V10Q141 0 131 0H100Q90 0 90 10V338Q90 348 80 348H53Q43
348 43 358V378Q43 388 53 388H80Q90 388 90 398V471Q90 547 137 593T259 640H278Q293 640 289 628Z" />
<glyph unicode="g" glyph-name="g" horiz-adv-x="450" d="M438 -116Q438 -168 403 -196T315 -225H170Q118 -225 85 -196T51 -116V-113Q51 -84 68 -59T118 -22Q122 -21 123 -17T122 -9Q97 20 97 52Q97 91 126 118Q134 124 124 132Q51 185 51 268V278Q51 347 98
391T218 436Q285 436 331 384Q342 372 348 381Q350 384 350 389V426Q350 436 360 436H380Q390 436 390 426V268Q390 199 341 154T218 108Q209 108 179 111Q163 105 154 89T144 52Q144 31 156 15T187 -7H315Q372 -7 405 -35T438 -113V-116ZM336 268V278Q336 327
302 361T218 396T136 362T103 278V268Q103 217 135 183T218 148Q271 148 303 183T336 268ZM387 -116V-113Q387 -84 368 -66T315 -48H170Q139 -48 120 -66T100 -113V-116Q100 -148 118 -166T170 -184H315Q348 -184 367 -166T387 -116Z" />
<glyph unicode="h" glyph-name="h" horiz-adv-x="480" d="M413 10Q413 0 403 0H372Q362 0 362 10V278Q362 327 327 361T242 396Q192 396 158 362T124 278V10Q124 0 114 0H83Q73 0 73 10V618Q73 628 83 628H114Q124 628 124 618V397Q124 388 130 387T142 392Q186
436 252 436Q321 436 367 392T413 278V10Z" />
<glyph unicode="i" glyph-name="i" horiz-adv-x="196" d="M134 619T134 604T124 578T98 567T73 578T63 604T73 629T98 640T123 630ZM124 10Q124 0 114 0H83Q73 0 73 10V426Q73 436 83 436H114Q124 436 124 426V10Z" />
<glyph unicode="j" glyph-name="j" horiz-adv-x="196" d="M134 619T134 604T124 578T98 567T73 578T63 604T73 629T98 640T123 630ZM124 -66Q124 -163 49 -210Q21 -228 -10 -235Q-23 -238 -23 -225V-203Q-23 -195 -15 -193Q26 -182 49 -151T73 -78V426Q73 436
83 436H114Q124 436 124 426V-66Z" />
<glyph unicode="k" glyph-name="k" horiz-adv-x="430" d="M408 15Q416 0 399 0H363Q357 0 354 5L208 245Q201 256 192 247L124 178V10Q124 0 114 0H83Q73 0 73 10V618Q73 628 83 628H114Q124 628 124 618V250Q124 242 129 240T141 243L310 429Q317 436 324 436H352Q360
436 362 431T359 419L240 300Q234 294 238 288L408 15Z" />
<glyph unicode="l" glyph-name="l" horiz-adv-x="196" d="M124 10Q124 0 114 0H83Q73 0 73 10V618Q73 628 83 628H114Q124 628 124 618V10Z" />
<glyph unicode="m" glyph-name="m" horiz-adv-x="725" d="M658 10Q658 0 648 0H617Q607 0 607 10V278Q607 330 576 363T497 396Q458 396 425 361T391 278V10Q391 0 381 0H350Q340 0 340 10V278Q340 328 308 362T230 396Q192 396 158 362T124 278V10Q124 0 114
0H83Q73 0 73 10V426Q73 436 83 436H102Q112 436 112 426V386Q112 376 118 375T130 380Q177 436 242 436Q314 436 361 365Q368 353 377 365Q429 436 501 436Q569 436 613 392T658 278V10Z" />
<glyph unicode="n" glyph-name="n" horiz-adv-x="480" d="M413 10Q413 0 403 0H372Q362 0 362 10V278Q362 329 329 362T242 396Q192 396 158 362T124 278V10Q124 0 114 0H83Q73 0 73 10V426Q73 436 83 436H102Q112 436 112 426V385Q112 379 115 377T124 375T132
381Q177 436 242 436Q319 436 366 392T413 278V10Z" />
<glyph unicode="o" glyph-name="o" horiz-adv-x="454" d="M397 150Q397 78 348 34T225 -10Q153 -10 106 34T58 150V288Q58 361 104 403T225 446Q300 446 348 404T397 288V150ZM346 150V288Q346 340 312 373T225 406Q172 406 141 374T109 288V150Q109 97 141 64T225
30Q276 30 311 64T346 150Z" />
<glyph unicode="p" glyph-name="p" horiz-adv-x="470" d="M413 158Q413 89 367 45T252 0Q186 0 142 44Q137 50 131 49T124 39V-215Q124 -225 114 -225H83Q73 -225 73 -215V426Q73 436 83 436H102Q112 436 112 426V387Q112 381 115 379T124 377T132 383Q174 436
242 436Q319 436 366 391T413 276V158ZM362 158V276Q362 328 328 362T242 396Q193 396 159 361T124 276V158Q124 108 158 74T242 40T327 74T362 158Z" />
<glyph unicode="q" glyph-name="q" horiz-adv-x="470" d="M398 -215Q398 -225 388 -225H357Q347 -225 347 -215V39Q347 48 341 49T329 44Q285 0 219 0Q151 0 105 44T58 158V276Q58 346 105 391T229 436Q297 436 339 383Q342 379 347 378T355 378T359 387V426Q359
436 369 436H388Q398 436 398 426V-215ZM347 158V276Q347 325 313 360T229 396Q176 396 143 362T109 276V158Q109 109 144 75T229 40T313 74T347 158Z" />
<glyph unicode="r" glyph-name="r" horiz-adv-x="266" d="M263 395Q263 385 253 385H242Q193 385 159 350T124 268V10Q124 0 114 0H83Q73 0 73 10V426Q73 436 83 436H102Q112 436 112 426V380Q112 371 119 370T132 375Q180 436 242 436H252Q263 436 263 426V395Z" />
<glyph unicode="s" glyph-name="s" horiz-adv-x="439" d="M389 123Q389 64 348 27T234 -10H202Q138 -10 91 25Q73 38 57 59Q49 69 62 74L87 85Q94 89 100 81Q138 25 202 25H234Q284 25 311 51T339 115Q339 126 336 135T328 151T315 164T299 173T277 181T255 187T230
193T205 199Q175 206 162 209T123 223T86 244T64 274T53 319Q53 380 95 413T202 446H234Q290 446 332 420Q358 404 376 381Q383 372 371 366L348 355Q342 352 337 359Q295 411 234 411H202Q152 411 128 388T103 327Q103 317 105 309T112 294T122 282T136 272T150
265T167 259T183 254T201 250T216 247Q256 238 269 235T313 222T355 200T378 169T389 123Z" />
<glyph unicode="t" glyph-name="t" horiz-adv-x="267" d="M235 1Q235 -11 224 -9Q180 0 147 24Q89 68 89 150V386Q89 396 79 396H19Q9 396 9 406V413L118 530Q121 533 125 533H130Q140 533 140 523V446Q140 436 150 436H225Q235 436 235 426V406Q235 396 225 396H150Q140
396 140 386V150Q140 108 163 77T227 34Q235 32 235 24V1Z" />
<glyph unicode="u" glyph-name="u" horiz-adv-x="482" d="M410 10Q410 0 400 0H379Q369 0 369 10V51Q369 60 362 61T350 56Q305 0 237 0Q161 0 115 44T68 160V426Q68 436 78 436H109Q119 436 119 426V160Q119 108 153 74T237 40Q288 40 323 74T359 160V426Q359
436 369 436H400Q410 436 410 426V10Z" />
<glyph unicode="v" glyph-name="v" horiz-adv-x="408" d="M396 422L227 6Q224 0 218 0H190Q184 0 181 6L13 422Q7 436 22 436H58Q64 436 67 430L193 106Q203 76 204 67H208Q210 83 219 106L344 430Q347 436 353 436H387Q402 436 396 422Z" />
<glyph unicode="w" glyph-name="w" horiz-adv-x="597" d="M580 423L453 7Q452 0 443 0H420Q411 0 410 7L312 339Q306 357 302 378H298Q294 357 288 339L188 7Q187 0 178 0H156Q147 0 146 7L18 423Q13 436 28 436H63Q72 436 73 429L155 112Q156 107 159 94T165
73H169Q174 95 179 112L271 429Q272 436 281 436H322Q331 436 332 429L421 112Q424 100 430 73H434Q436 81 439 93T444 111L525 429Q526 436 535 436H570Q583 436 580 423Z" />
<glyph unicode="x" glyph-name="x" horiz-adv-x="412" d="M375 15Q384 0 367 0H329Q323 0 320 5L211 184Q206 192 200 184L89 5Q86 0 82 0H46Q29 0 38 15L169 216Q170 218 170 221T169 226L40 421Q31 436 48 436H85Q90 436 93 431L203 257Q210 246 216 257L322
431Q325 436 330 436H365Q382 436 373 421L246 227Q243 222 246 217L375 15Z" />
<glyph unicode="y" glyph-name="y" horiz-adv-x="482" d="M410 -64Q410 -141 365 -188T237 -235Q170 -235 127 -202Q107 -186 93 -163Q88 -155 99 -149L125 -136Q132 -133 136 -139Q177 -195 237 -195Q290 -195 324 -161T359 -75V39Q359 49 353 50T339 44Q295
0 229 0Q161 0 115 44T68 158V426Q68 436 78 436H109Q119 436 119 426V158Q119 109 154 75T239 40T324 74T359 158V426Q359 436 369 436H400Q410 436 410 426V-64Z" />
<glyph unicode="z" glyph-name="z" horiz-adv-x="391" d="M361 10Q361 0 351 0H44Q27 0 35 15L250 380Q258 395 241 395H33Q23 395 23 405V425Q23 435 33 435H322Q339 435 331 420L115 55Q107 40 124 40H351Q361 40 361 30V10Z" />
<glyph unicode="{" glyph-name="braceleft" horiz-adv-x="371" d="M296 -181Q296 -194 285 -191Q235 -179 201 -147Q149 -98 149 -21V133Q149 175 126 205T62 246Q54 248 54 256V287Q54 295 62 297Q103 308 126 339T149 412V568Q149 638 194 685Q228 720 285 734Q296
737 296 724V701Q296 693 288 691Q247 681 224 651T201 578V400Q201 370 180 333T124 280Q114 276 124 271Q157 254 179 211T201 136V-33Q201 -75 224 -106T288 -148Q296 -150 296 -158V-181Z" />
<glyph unicode="}" glyph-name="braceright" horiz-adv-x="371" d="M317 256Q317 248 309 246Q268 235 245 205T222 133V-21Q222 -104 163 -154Q130 -181 86 -191Q75 -194 75 -181V-158Q75 -150 83 -148Q124 -137 147 -106T170 -33V136Q170 168 192 211T247 271Q257
276 247 280Q213 296 192 333T170 400V578Q170 620 147 650T83 691Q75 693 75 701V724Q75 737 86 734Q134 724 168 694Q222 645 222 568V412Q222 370 245 339T309 297Q317 295 317 287V256Z" />
</font>
</defs>
</svg>
